[TR24][OF] Keiko Matsui - Echo - 2019 (Smooth Jazz)

Страницы:  1

Ответить
Автор
Сообщение

Stephenten

Стаж: 8 лет 1 месяц

Сообщений: 780

Stephenten · 14-Май-19 18:38 (1 месяц 11 дней назад)

Keiko Matsui - Echo

Формат записи/Источник записи: [TR24][OF]
Наличие водяных знаков: Нет
Год издания: 2019
Жанр: Smooth Jazz
Издатель (лейбл): Shanachie
Продолжительность: 00:43:42
Наличие сканов в содержимом раздачи: Буклет PDF
Контейнер: FLAC (*.flac)
Тип рипа: tracks
Разрядность: 24/44.1
Формат: PCM
Количество каналов: 2.0
Источник (релизер): qobuz.com
Треклист
1. Unshakeable
2. Moon Over Gotham
3. Echo
4. Esprit
5. Marlin Club Blues
6. Invisible Rain
7. Spirit Dance
8. Now Is The Moment
9. Viva Life
10. Return To Eternity
Лог проверки качества
foobar2000 1.4 / Dynamic Range Meter 1.1.1
log date: 2019-05-14 19:30:20
--------------------------------------------------------------------------------
Analyzed: Keiko Matsui / Echo
--------------------------------------------------------------------------------
DR Peak RMS Duration Track
--------------------------------------------------------------------------------
DR10 -0.85 dB -13.04 dB 3:36 01-Unshakeable
DR10 -0.82 dB -13.20 dB 4:14 02-Moon Over Gotham
DR10 -0.70 dB -12.95 dB 4:15 03-Echo
DR9 -0.70 dB -12.14 dB 5:53 04-Esprit
DR9 -0.78 dB -12.25 dB 3:51 05-Marlin Club Blues
DR11 -0.75 dB -14.10 dB 4:17 06-Invisible Rain
DR10 -0.86 dB -13.07 dB 4:57 07-Spirit Dance
DR11 -0.89 dB -14.08 dB 3:11 08-Now Is The Moment
DR9 -0.79 dB -12.68 dB 4:22 09-Viva Life
DR10 -0.87 dB -13.69 dB 5:09 10-Return To Eternity
--------------------------------------------------------------------------------
Number of tracks: 10
Official DR value: DR10
Samplerate: 44100 Hz
Channels: 2
Bits per sample: 24
Bitrate: 1539 kbps
Codec: FLAC
================================================================================
Об альбоме (сборнике)
Keiko Matsui is an icon of Contemporary Jazz. With over 2 million units sold in the U.S. alone and sold-out appearances at concert halls across the world, she is one of the most recognized artists in the genre.
Her elegant piano melodies and gentle jazz grooves have enormous appeal and never disappoint the loyal fan base which she has cultivated, with over a dozen albums and hundreds of stunning live shows!
‘Echo’, Keiko’s most heartfelt release yet, elevates the artist to new heights and features a full string orchestra and horn ensemble, acoustic performances that transcend musical genres and stellar special guests, while still maintaining Keiko’s classic listener-friendly, inspiring sound!!
Download
Для скачивания .torrent файлов необходима регистрация
Сайт не распространяет и не хранит электронные версии произведений, а лишь предоставляет доступ к создаваемому пользователями каталогу ссылок на торрент-файлы, которые содержат только списки хеш-сумм
[Профиль]  [ЛС] 

Leominor 1

Стаж: 9 лет 3 месяца

Сообщений: 69

Leominor 1 · 16-Май-19 23:57 (спустя 2 дня 5 часов)

Переслушивал уже несколько раз! Альбом хороший! Спасибо!
[Профиль]  [ЛС] 
 
Ответить
Loading...
Error