[SACD-R][OF] Ella Fitzgerald - Let No Man Write My Epitaph - 1960/2014 (Jazz, Vocal Jazz)

Страницы:  1

Ответить
Автор
Сообщение

severin_OK

Top Seed 05* 640r

Стаж: 11 лет 6 месяцев

Сообщений: 3619

severin_OK · 12-Янв-18 10:13 (1 год 5 месяцев назад)

Ella Fitzgerald
sings songs from
Let No Man Write My Epitaph

Формат записи/Источник записи: [SACD-R][OF]
Наличие водяных знаков: Нет
Год издания/переиздания диска: 1960/2014
Жанр: Jazz, Vocal Jazz
Издатель (лейбл): Verve / Analogue Productions
Продолжительность: 00:42:42
Наличие сканов в содержимом раздачи: Только обложка альбома
Треклист:
01. Black Coffee
02. Angel Eyes
03. I Cried For You
04. I Can’t Give You Anything But Love
05. Then You’ve Never Been Blue
06. I Hadn’t Anyone Till You
07. My Melancholy Baby
08. Misty
09. September Song
10. One For My Baby
11. Who’s Sorry Now
12. I’M Getting Sentimental Over You
13. Reach For Tomorrow
Контейнер: ISO (*.iso)
Тип рипа: image
Разрядность: 64(2,8 MHz/1 Bit)
Формат: DSD
Количество каналов: 2.0
Доп. информация: Analogue Productions – CVRJ4043SA
Mastered by George Marino at Sterling Sound from the Absolute Original Analog Master Tapes!
Iso was made with sacd-ripper for PS3, from the magical Mr_Wicked.
Источник (релизер): jazzyman (PS³SACD)
http://www.elusivedisc.com/Ella-Fitzgerald-Sings-Songs-From-Let-No-Man-Write-My-E...tinfo/APSAV4043/
Лог DR
foobar2000 1.3.13 / Замер динамического диапазона (DR) 1.1.1
Дата отчёта: 2018-01-12 10:06:48
--------------------------------------------------------------------------------
Анализ: Ella Fitzgerald / Let No Man Write My Epitaph
--------------------------------------------------------------------------------
DR Пики RMS Продолжительность трека
--------------------------------------------------------------------------------
DR12 -4.92 дБ -20.61 дБ 3:31 01-Black Coffee
DR12 -6.19 дБ -21.97 дБ 3:30 02-Angel Eyes
DR13 -6.65 дБ -22.35 дБ 3:30 03-I Cried For You
DR12 -6.35 дБ -21.90 дБ 3:31 04-I Can't Give You Anything But Love, Baby
DR12 -7.31 дБ -22.16 дБ 3:13 05-Then You've Never Been Blue
DR11 -7.10 дБ -22.08 дБ 2:52 06-I Hadn't Anyone Till You
DR12 -6.34 дБ -21.46 дБ 3:00 07-My Melancholy Baby
DR12 -6.31 дБ -21.63 дБ 2:55 08-Misty
DR11 -8.06 дБ -22.65 дБ 3:43 09-September Song
DR12 -5.18 дБ -21.53 дБ 4:21 10-One For My Baby (And One More For The Road)
DR11 -6.21 дБ -21.15 дБ 3:29 11-Who's Sorry Now?
DR11 -8.10 дБ -21.99 дБ 2:39 12-I'm Getting Sentimental Over You
DR11 -7.31 дБ -21.72 дБ 2:28 13-Reach For Tomorrow
--------------------------------------------------------------------------------
Количество треков: 13
Реальные значения DR: DR12
Частота: 2822400 Гц / Частота PCM: 352800 Гц
Каналов: 2
Разрядность: 24
Битрейт: 5645 кбит/с
Кодек: DSD64
================================================================================
Об альбоме (сборнике)
Considered one of Ella's greatest recordings, she's backed on this 1960 release by pianist Paul Smith. Let No Man Write My Epitaph was a 1960 Hollywood movie featuring Fitzgerald. The album hits at a depth of emotional understanding that critics often complained was missing in Ella's reading of jazz lyrics, and once again establishes her as one of the supreme interpreters of the Great American Songbook.
This album is one of those rare recordings that are often overlooked because of its relative obscurity. Of the thirteen songs recorded and presented here, only three were actually used in the film. Ella performs tracks like "Misty," "Angel Eyes," "Black Coffee" and a host of others with breathtaking finesse and sensitivity. If you had to have one Ella Fitzgerald record, as everyone should, this would surely be a worthy candidate.
Download
Для скачивания .torrent файлов необходима регистрация
Сайт не распространяет и не хранит электронные версии произведений, а лишь предоставляет доступ к создаваемому пользователями каталогу ссылок на торрент-файлы, которые содержат только списки хеш-сумм
[Профиль]  [ЛС] 

ichbinich

Победители конкурсов

Стаж: 7 лет 11 месяцев

Сообщений: 1717

ichbinich · 02-Окт-18 18:40 (спустя 8 месяцев)

Очень приятный во всех отношениях релиз!
[Профиль]  [ЛС] 
 
Ответить
Loading...
Error