[SACD-R][OF] Grady Tate Sings (feat. Kenny Barron, Jimmy Cobb, Frank Wess, John Di Martino) - All Love - 2002 (Vocal Jazz)

Страницы:  1

Ответить
Автор
Сообщение

artyfox

Top User 06

Стаж: 10 лет 4 месяца

Сообщений: 581

artyfox · 29-Дек-17 18:19 (1 год 5 месяцев назад)

Grady Tate Sings (feat. Kenny Barron, Jimmy Cobb, Frank Wess, John Di Martino) / All Love
Формат записи/Источник записи: [SACD-R][OF]
Наличие водяных знаков: Нет
Год издания/переиздания диска: 2002
Жанр: Vocal Jazz
Издатель (лейбл): Village Records [VRGL-8802]
Продолжительность: 00:47:10
Наличие сканов в содержимом раздачи: Да (сканы)
Треклист:
01. Follow the Path
02. My One and Only Love
03. A Weaver of Dreams
04. What are You Doing the Rest of Your Life
05. Dream Love
06. Don’t Misunderstand
07. In a Sentimental Mood
08. Estate
09. Sophisticated Lady
Контейнер: ISO (*.iso)
Тип рипа: image
Разрядность: 64(2,8 MHz/1 Bit)
Формат: DSD
Количество каналов: 2.0
Лог проверки качества
foobar2000 1.3.17 / Замер динамического диапазона (DR) 1.1.1
Дата отчёта: 2017-12-29 20:44:59
--------------------------------------------------------------------------------
Анализ: ? / ?
--------------------------------------------------------------------------------
DR Пики RMS Продолжительность трека
--------------------------------------------------------------------------------
DR13 -3.08 дБ -18.33 дБ 3:56 01-Follow the Path
DR14 -3.77 дБ -21.04 дБ 6:27 02-My One and Only Love
DR14 -2.37 дБ -19.30 дБ 4:13 03-A Weaver of Dreams
DR15 -3.50 дБ -23.30 дБ 3:21 04-What are You Doing the Rest of Your Life
DR13 -3.51 дБ -19.12 дБ 5:32 05-Dream Love
DR14 -5.24 дБ -22.20 дБ 6:58 06-Don't Misunderstand
DR13 -5.39 дБ -21.57 дБ 5:07 07-In a Sentimental Mood
DR13 -5.72 дБ -20.92 дБ 5:03 08-Estatй
DR14 -5.43 дБ -22.86 дБ 6:33 09-Sophisticated Lady
--------------------------------------------------------------------------------
Количество треков: 9
Реальные значения DR: DR13
Частота: 2822400 Гц / Частота PCM: 352800 Гц
Каналов: 2
Разрядность: 1
Битрейт: 5645 кбит/с
Кодек: DSD64
================================================================================
Скриншот спектра частот
Источник (релизер): jazzyman (PS³SACD)
https://www.sonymusicshop.jp/m/item/itemShw.php?site=S&cd=VRGL000008802
Состав
Grady Tate (vocal, drums)
Kenny Barron (acoustic piano)
Ira Coleman (bass)
Jimmy Cobb (drums)
Frank Wess (flute, tenor saxophone)
John Di Martino (fender-rhodes)
Richard Wyands (acoustic piano)
Об альбоме (сборнике)
Grady Tate has been one of the world's most versatile, frequently-recorded musicians for more than 40 years. He is often featured as a distinctive drummer, but in fact, he is also one of the best vocalists in the world. For this album, Grady Tate selects everything from standards to '50s musical hits number to his own composition, but the common theme is "love." That is the very message Tate, who celebrated his 70th birthday during the recording date, wanted to remind people of. The members accompanying Tate are: Kenny Barron (piano), Ira Coleman (bass) and drummer Jimmy Cobb. Grady's voice swings gently and sometimes longingly together with the finest trio. Recorded by David Baker.
Download
Для скачивания .torrent файлов необходима регистрация
Сайт не распространяет и не хранит электронные версии произведений, а лишь предоставляет доступ к создаваемому пользователями каталогу ссылок на торрент-файлы, которые содержат только списки хеш-сумм
[Профиль]  [ЛС] 

sav1va

Стаж: 8 лет 5 месяцев

Сообщений: 45


sav1va · 30-Дек-17 07:11 (спустя 12 часов)

Соглашусь. Спасибо за раздачу. С наступающим новым годом!
[Профиль]  [ЛС] 

Sokol1961

Стаж: 8 лет 7 месяцев

Сообщений: 210

Sokol1961 · 30-Дек-17 15:46 (спустя 8 часов)

Красненько дякую! Усіх вітаю з прийдешнім Новим Роком!!!
[Профиль]  [ЛС] 

bennopar

Стаж: 9 лет 3 месяца

Сообщений: 7


bennopar · 30-Дек-17 21:50 (спустя 6 часов)

Прелестная пластиночка. Не слышал его раньше. Спасибо и с Новым Годом!
[Профиль]  [ЛС] 
 
Ответить
Loading...
Error